Skip to main content

Club d'Elf Live at Church of Boston on 2013-11-05




Club d'Elf
2013-11-05
Church of Boston
Boston, MA

DPA 4011 > V3 Digital + SBD > R44 (24/96)
SDHC Card > Sound Forge Pro 10.0 (Mix, Normalize, Fades, resample iZotope 64-Bit SRC, dither iZotope MBIT+ Dither) > CD Wav (tracking) > TLH > Flac (level 8)
DFC/DIN/approx. 8' high/about 20' from the stage

Taped and Transferred by Brian V.

01. intro
02.
03.
04.
05.
06. band intros
07.


Collection ClubdElf
Band/Artist Club d'Elf
Venue Church of Boston
Location Boston, MA

Source DPA 4011 > V3 Digital + SBD > R44 (24/96)
Lineage SDHC Card > Sound Forge Pro 10.0 (Mix, Normalize, Fades, resample iZotope 64-Bit SRC, dither iZotope MBIT+ Dither) > CD Wav (tracking) > TLH > Flac (level 8)
Taped by Brian V.
Transferred by Brian V.

Notes

Mike Rivard - Bass & Sintir
Dean Johnston - Drums
Paul Schultheis - Keyboards
Van Martin - Guitar
Mister Rourke - DJ/Turntables

***Support Bands That Allow Taping/Trading***

shntool output
length expanded size cdr WAVE problems fmt ratio filename
0:45.46 8046236 B --- -- ---xx flac 0.4713 delf2013-11-05s1t01.flac
13:32.12 143265068 B --- -- ---xx flac 0.5244 delf2013-11-05s1t02.flac
20:35.26 217915196 B --- -- ---xx flac 0.5418 delf2013-11-05s1t03.flac
16:06.21 170451836 B --- -- ---xx flac 0.5425 delf2013-11-05s1t04.flac
9:57.09 105332012 B --- -- ---xx flac 0.5075 delf2013-11-05s1t05.flac
1:50.50 19521644 B --- -- ---xx flac 0.4468 delf2013-11-05s1t06.flac
6:59.29 73979852 B --- -- ---xx flac 0.5445 delf2013-11-05s1t07.flac
69:46.43 738511844 B 0.5307 (7 files)

Reviews

There are no reviews yet. Be the first one to write a review.
PEOPLE ALSO FOUND
Club d'Elf
by Club d'Elf
145
0
0
Source: DPA 4011 > Lunatec V3 (Digital) > R44 (24/96)
Club d'Elf
by Club d'Elf
59
0
0
Source: DPA 4011 > V3 Digital + SBD > R44 (24/96)
Club d'Elf
by Club d'Elf
76
0
0
Source: DPA 4011 > V3 Digital > R44 (24/96)
Club d'Elf
by Club d'Elf
30
0
0
Source: DPA 4011 > V3 Digital > DR-680 (24/96)
Club d'Elf
by Club d'Elf
77
0
0
Source: DPA 4011 > V3 Digital + SBD > R44 (24/96)
Club d'Elf
by Club d'Elf
73
0
0
Source: DPA 4011 > V3 Digital + SBD > R44 (24/96)
Club d'Elf
by Club d'Elf
86
0
0
Source: DPA 4011 > V3 Digital + SBD > R44 (24/96)
Club d'Elf
by Club d'Elf
77
0
0
Source: DPA 4011 > V3 Digital + SBD > R44 (24/96)
Club d'Elf
by Club d'Elf
51
0
0
Source: DPA 4011 > Lunatec V3 (Digital) > R44 (24/96)
Club d'Elf
by Club d'Elf
32
0
0
Source: DPA 4011 > V3 Digital > R44 (24/96)